  0
SECTION
  2
HEADER
  9
$ACADVER
  1
AC1014
  9
$ACADMAINTVER
 70
     0
  9
$DWGCODEPAGE
  3
ANSI_1252
  9
$INSBASE
 10
0.0
 20
0.0
 30
0.0
  9
$EXTMIN
 10
0.0
 20
0.0
 30
0.0
  9
$EXTMAX
 10
17.0
 20
11.0
 30
0.0
  9
$LIMMIN
 10
0.0
 20
0.0
  9
$LIMMAX
 10
12.0
 20
9.0
  9
$ORTHOMODE
 70
     0
  9
$REGENMODE
 70
     1
  9
$FILLMODE
 70
     0
  9
$QTEXTMODE
 70
     0
  9
$MIRRTEXT
 70
     1
  9
$DRAGMODE
 70
     2
  9
$LTSCALE
 40
1.0
  9
$OSMODE
 70
     0
  9
$ATTMODE
 70
     1
  9
$TEXTSIZE
 40
0.2
  9
$TRACEWID
 40
0.05
  9
$TEXTSTYLE
  7
STANDARD
  9
$CLAYER
  8
0
  9
$CELTYPE
  6
BYLAYER
  9
$CECOLOR
 62
   256
  9
$CELTSCALE
 40
1.0
  9
$DELOBJ
 70
     1
  9
$DISPSILH
 70
     0
  9
$DIMSCALE
 40
1.0
  9
$DIMASZ
 40
0.18
  9
$DIMEXO
 40
0.0625
  9
$DIMDLI
 40
0.38
  9
$DIMRND
 40
0.0
  9
$DIMDLE
 40
0.0
  9
$DIMEXE
 40
0.18
  9
$DIMTP
 40
0.0
  9
$DIMTM
 40
0.0
  9
$DIMTXT
 40
0.18
  9
$DIMCEN
 40
0.09
  9
$DIMTSZ
 40
0.0
  9
$DIMTOL
 70
     0
  9
$DIMLIM
 70
     0
  9
$DIMTIH
 70
     0
  9
$DIMTOH
 70
     0
  9
$DIMSE1
 70
     0
  9
$DIMSE2
 70
     0
  9
$DIMTAD
 70
     1
  9
$DIMZIN
 70
     0
  9
$DIMBLK
  1

  9
$DIMASO
 70
     1
  9
$DIMSHO
 70
     1
  9
$DIMPOST
  1

  9
$DIMAPOST
  1

  9
$DIMALT
 70
     0
  9
$DIMALTD
 70
     2
  9
$DIMALTF
 40
25.4
  9
$DIMLFAC
 40
1.0
  9
$DIMTOFL
 70
     0
  9
$DIMTVP
 40
0.0
  9
$DIMTIX
 70
     0
  9
$DIMSOXD
 70
     0
  9
$DIMSAH
 70
     0
  9
$DIMBLK1
  1

  9
$DIMBLK2
  1

  9
$DIMSTYLE
  2
STANDARD
  9
$DIMCLRD
 70
     0
  9
$DIMCLRE
 70
     0
  9
$DIMCLRT
 70
     0
  9
$DIMTFAC
 40
1.0
  9
$DIMGAP
 40
0.09
  9
$DIMJUST
 70
     0
  9
$DIMSD1
 70
     0
  9
$DIMSD2
 70
     0
  9
$DIMTOLJ
 70
     1
  9
$DIMTZIN
 70
     0
  9
$DIMALTZ
 70
     0
  9
$DIMALTTZ
 70
     0
  9
$DIMFIT
 70
     3
  9
$DIMUPT
 70
     0
  9
$DIMUNIT
 70
     2
  9
$DIMDEC
 70
     2
  9
$DIMTDEC
 70
     4
  9
$DIMALTU
 70
     2
  9
$DIMALTTD
 70
     2
  9
$DIMTXSTY
  7
_VISDIMTXTSTYLE
  9
$DIMAUNIT
 70
     0
  9
$LUNITS
 70
     2
  9
$LUPREC
 70
     4
  9
$SKETCHINC
 40
0.1
  9
$FILLETRAD
 40
0.5
  9
$AUNITS
 70
     0
  9
$AUPREC
 70
     0
  9
$MENU
  1
.
  9
$ELEVATION
 40
0.0
  9
$PELEVATION
 40
0.0
  9
$THICKNESS
 40
0.0
  9
$LIMCHECK
 70
     0
  9
$BLIPMODE
 70
     0
  9
$CHAMFERA
 40
0.5
  9
$CHAMFERB
 40
0.5
  9
$CHAMFERC
 40
1.0
  9
$CHAMFERD
 40
0.0
  9
$SKPOLY
 70
     0
  9
$TDCREATE
 40
2450772.666465926
  9
$TDUPDATE
 40
2454164.968125000
  9
$TDINDWG
 40
0.0011564931
  9
$TDUSRTIMER
 40
0.0000000000
  9
$USRTIMER
 70
     1
  9
$ANGBASE
 50
0.0
  9
$ANGDIR
 70
     0
  9
$PDMODE
 70
     0
  9
$PDSIZE
 40
0.0
  9
$PLINEWID
 40
0.0
  9
$COORDS
 70
     1
  9
$SPLFRAME
 70
     0
  9
$SPLINETYPE
 70
     6
  9
$SPLINESEGS
 70
     8
  9
$ATTDIA
 70
     0
  9
$ATTREQ
 70
     1
  9
$HANDLING
 70
     1
  9
$HANDSEED
  5
147
  9
$SURFTAB1
 70
     6
  9
$SURFTAB2
 70
     6
  9
$SURFTYPE
 70
     6
  9
$SURFU
 70
     6
  9
$SURFV
 70
     6
  9
$UCSNAME
  2

  9
$UCSORG
 10
0.0
 20
0.0
 30
0.0
  9
$UCSXDIR
 10
1.0
 20
0.0
 30
0.0
  9
$UCSYDIR
 10
0.0
 20
1.0
 30
0.0
  9
$PUCSNAME
  2

  9
$PUCSORG
 10
0.0
 20
0.0
 30
0.0
  9
$PUCSXDIR
 10
1.0
 20
0.0
 30
0.0
  9
$PUCSYDIR
 10
0.0
 20
1.0
 30
0.0
  9
$USERI1
 70
     0
  9
$USERI2
 70
     0
  9
$USERI3
 70
     0
  9
$USERI4
 70
     0
  9
$USERI5
 70
     0
  9
$USERR1
 40
0.0
  9
$USERR2
 40
0.0
  9
$USERR3
 40
0.0
  9
$USERR4
 40
0.0
  9
$USERR5
 40
0.0
  9
$WORLDVIEW
 70
     1
  9
$SHADEDGE
 70
     3
  9
$SHADEDIF
 70
    70
  9
$TILEMODE
 70
     1
  9
$MAXACTVP
 70
    48
  9
$PINSBASE
 10
0.0
 20
0.0
 30
0.0
  9
$PLIMCHECK
 70
     0
  9
$PEXTMIN
 10
0.0
 20
0.0
 30
0.0
  9
$PEXTMAX
 10
0.0
 20
0.0
 30
0.0
  9
$PLIMMIN
 10
0.0
 20
0.0
  9
$PLIMMAX
 10
12.0
 20
9.0
  9
$UNITMODE
 70
     0
  9
$VISRETAIN
 70
     1
  9
$PLINEGEN
 70
     0
  9
$PSLTSCALE
 70
     1
  9
$TREEDEPTH
 70
  3020
  9
$PICKSTYLE
 70
     1
  9
$CMLSTYLE
  2
STANDARD
  9
$CMLJUST
 70
     0
  9
$CMLSCALE
 40
1.0
  9
$PROXYGRAPHICS
 70
     1
  9
$MEASUREMENT
 70
     0
  0
ENDSEC
  0
SECTION
  2
CLASSES
  0
CLASS
  1
LWPOLYLINE
  2
AcDbPolyline
  3
"AutoCAD"
 90
        0
280
     0
281
     1
  0
CLASS
  1
IMAGE
  2
AcDbRasterImage
  3
ISM
 90
      127
280
     0
281
     1
  0
CLASS
  1
OLE2FRAME
  2
AcDbOle2Frame
  3
""
 90
        0
280
     0
281
     1
  0
CLASS
  1
HATCH
  2
AcDbHatch
  3
"ACAD_SEDONA"
 90
        0
280
     0
281
     1
  0
CLASS
  1
DICTIONARYVAR
  2
AcDbDictionaryVar
  3
"AutoCAD"
 90
        0
280
     0
281
     0
  0
CLASS
  1
RASTERVARIABLES
  2
AcDbRasterVariables
  3
ISM
 90
        0
280
     0
281
     0
  0
CLASS
  1
IMAGEDEF
  2
AcDbRasterImageDef
  3
ISM
 90
        0
280
     0
281
     0
  0
CLASS
  1
IMAGEDEF_REACTOR
  2
AcDbRasterImageDefReactor
  3
ISM
 90
        1
280
     0
281
     0
  0
CLASS
  1
IDBUFFER
  2
AcDbIdBuffer
  3
"Acad"
 90
        0
280
     0
281
     0
  0
CLASS
  1
SPATIAL_FILTER
  2
AcDbSpatialFilter
  3
"Acad"
 90
        0
280
     0
281
     0
  0
CLASS
  1
XRECORD
  2
AcDbXrecord
  3
"<Built In>"
 90
        0
280
     0
281
     0
  0
CLASS
  1
SORTENTSTABLE
  2
AcDbSortentsTable
  3
"AutoCAD"
 90
        0
280
     0
281
     0
  0
CLASS
  1
LAYER_INDEX
  2
AcDbLayerIndex
  3
"Acad"
 90
        0
280
     0
281
     0
  0
CLASS
  1
SPATIAL_INDEX
  2
AcDbSpatialIndex
  3
"Acad"
 90
        0
280
     0
281
     0
  0
CLASS
  1
OBJECT_PTR
  2
CAseDLPNTableRecord
  3
"ASE-LPNTableRecord"
 90
        1
280
     0
281
     0
  0
CLASS
  1
LAYOUT
  2
AcDbLayout
  3
"AutoCAD 2000"
 90
        1
280
     0
281
     0
  0
CLASS
  1
PLOTSETTINGS
  2
AcDbPlotSettings
  3
"AutoCAD 2000"
 90
        1
280
     0
281
     0
  0
CLASS
  1
ACDBDICTIONARYWDFLT
  2
AcDbDictionaryWithDefault
  3
"AutoCAD 2000"
 90
        1
280
     0
281
     0
  0
CLASS
  1
ACDBPLACEHOLDER
  2
AcDbPlaceHolder
  3
"AutoCAD 2000"
 90
        1
280
     0
281
     0
  0
CLASS
  1
VBA_PROJECT
  2
AcDbVbaProject
  3
"acadvba"
 90
        1
280
     0
281
     0
  0
CLASS
  1
WIPEOUT
  2
AcDbWipeout
  3
WipeOut|AutoCAD Express Tool|expresstools@autodesk.com
 90
      127
280
     0
281
     1
  0
CLASS
  1
WIPEOUTVARIABLES
  2
AcDbWipeoutVariables
  3
WipeOut|AutoCAD Express Tool|expresstools@autodesk.com
 90
        0
280
     0
281
     0
  0
CLASS
  1
RTEXT
  2
RText
  3
RText|AutoCAD Express Tool|expresstools@autodesk.com
 90
        0
280
     0
281
     1
  0
CLASS
  1
ARCALIGNEDTEXT
  2
AcDbArcAlignedText
  3
ATEXT|AutoCAD Express Tool|expresstools@autodesk.com
 90
        0
280
     0
281
     1
  0
ENDSEC
  0
SECTION
  2
TABLES
  0
TABLE
  2
VPORT
  5
8
100
AcDbSymbolTable
 70
     1
  0
VPORT
  5
25
100
AcDbSymbolTableRecord
100
AcDbViewportTableRecord
  2
*ACTIVE
 70
     0
 10
0.0
 20
0.0
 11
1.0
 21
1.0
 12
8.5
 22
5.5
 13
0.0
 23
0.0
 14
0.5
 24
0.5
 15
0.5
 25
0.5
 16
0.0
 26
0.0
 36
1.0
 17
0.0
 27
0.0
 37
0.0
 40
11.0
 41
1.545455
 42
50.0
 43
0.0
 44
0.0
 50
0.0
 51
0.0
 71
     0
 72
   100
 73
     1
 74
     1
 75
     0
 76
     0
 77
     0
 78
     0
  0
ENDTAB
  0
TABLE
  2
LTYPE
  5
5
100
AcDbSymbolTable
 70
     3
  0
LTYPE
  5
12
100
AcDbSymbolTableRecord
100
AcDbLinetypeTableRecord
  2
BYBLOCK
 70
    64
  3

 72
    65
 73
     0
 40
0.0
  0
LTYPE
  5
13
100
AcDbSymbolTableRecord
100
AcDbLinetypeTableRecord
  2
BYLAYER
 70
    64
  3

 72
    65
 73
     0
 40
0.0
  0
LTYPE
  5
14
100
AcDbSymbolTableRecord
100
AcDbLinetypeTableRecord
  2
CONTINUOUS
 70
     0
  3
Solid line
 72
    65
 73
     0
 40
0.0
  0
ENDTAB
  0
TABLE
  2
LAYER
  5
2
100
AcDbSymbolTable
 70
     3
  0
LAYER
  5
E
100
AcDbSymbolTableRecord
100
AcDbLayerTableRecord
  2
0
 70
     0
 62
     7
  6
CONTINUOUS
  0
LAYER
  5
3D
100
AcDbSymbolTableRecord
100
AcDbLayerTableRecord
  2
DIMENSIONS
 70
     0
 62
     7
  6
CONTINUOUS
  0
LAYER
  5
42
100
AcDbSymbolTableRecord
100
AcDbLayerTableRecord
  2
DEFPOINTS
 70
     0
 62
     7
  6
CONTINUOUS
  0
ENDTAB
  0
TABLE
  2
STYLE
  5
3
100
AcDbSymbolTable
 70
     2
  0
STYLE
  5
F
100
AcDbSymbolTableRecord
100
AcDbTextStyleTableRecord
  2
STANDARD
 70
     0
 40
0.0
 41
1.0
 50
0.0
 71
     0
 42
0.2
  3
txt.shx
  4

  0
STYLE
  5
46
100
AcDbSymbolTableRecord
100
AcDbTextStyleTableRecord
  2
_VISDIMTXTSTYLE
 70
     0
 40
0.0
 41
1.0
 50
0.0
 71
     0
 42
0.2
  3
ARIAL.TTF
  4

1001
ACAD
1000
Arial
1071
       34
  0
ENDTAB
  0
TABLE
  2
VIEW
  5
6
100
AcDbSymbolTable
 70
     0
  0
ENDTAB
  0
TABLE
  2
UCS
  5
7
100
AcDbSymbolTable
 70
     0
  0
ENDTAB
  0
TABLE
  2
APPID
  5
9
100
AcDbSymbolTable
 70
     1
  0
APPID
  5
10
100
AcDbSymbolTableRecord
100
AcDbRegAppTableRecord
  2
ACAD
 70
     0
  0
ENDTAB
  0
TABLE
  2
DIMSTYLE
  5
A
100
AcDbSymbolTable
 70
     1
  0
DIMSTYLE
105
1D
102
{ACAD_REACTORS
330
4B
330
59
330
67
330
76
330
84
330
92
330
A0
330
AE
330
BC
330
CA
330
D8
330
E6
330
F1
330
FC
330
10B
102
}
100
AcDbSymbolTableRecord
100
AcDbDimStyleTableRecord
  2
STANDARD
 70
     0
  3

  4

  5

  6

  7

 40
1.0
 41
0.18
 42
0.0625
 43
0.38
 44
0.18
 45
0.0
 46
0.0
 47
0.0
 48
0.0
 71
     0
 72
     0
 73
     1
 74
     1
 75
     0
 76
     0
 77
     1
 78
     0
140
0.18
141
0.09
142
0.0
143
25.4
144
1.0
145
0.0
146
1.0
147
0.09
170
     0
171
     2
172
     0
173
     0
174
     0
175
     0
176
     0
177
     0
178
     0
270
     2
271
     4
272
     1
273
     2
274
     2
275
     0
280
     0
281
     0
282
     0
283
     1
284
     0
285
     0
286
     0
287
     3
288
     0
340
46
  0
ENDTAB
  0
TABLE
  2
BLOCK_RECORD
  5
1
100
AcDbSymbolTable
 70
    21
  0
BLOCK_RECORD
  5
18
100
AcDbSymbolTableRecord
100
AcDbBlockTableRecord
  2
*MODEL_SPACE
  0
BLOCK_RECORD
  5
15
100
AcDbSymbolTableRecord
100
AcDbBlockTableRecord
  2
*PAPER_SPACE
  0
BLOCK_RECORD
  5
3B
100
AcDbSymbolTableRecord
100
AcDbBlockTableRecord
  2
*D0
  0
BLOCK_RECORD
  5
4C
100
AcDbSymbolTableRecord
100
AcDbBlockTableRecord
  2
*D1
  0
BLOCK_RECORD
  5
5A
100
AcDbSymbolTableRecord
100
AcDbBlockTableRecord
  2
*D2
  0
BLOCK_RECORD
  5
68
100
AcDbSymbolTableRecord
100
AcDbBlockTableRecord
  2
*D3
  0
BLOCK_RECORD
  5
77
100
AcDbSymbolTableRecord
100
AcDbBlockTableRecord
  2
*D4
  0
BLOCK_RECORD
  5
85
100
AcDbSymbolTableRecord
100
AcDbBlockTableRecord
  2
*D5
  0
BLOCK_RECORD
  5
93
100
AcDbSymbolTableRecord
100
AcDbBlockTableRecord
  2
*D6
  0
BLOCK_RECORD
  5
A1
100
AcDbSymbolTableRecord
100
AcDbBlockTableRecord
  2
*D7
  0
BLOCK_RECORD
  5
AF
100
AcDbSymbolTableRecord
100
AcDbBlockTableRecord
  2
*D8
  0
BLOCK_RECORD
  5
BD
100
AcDbSymbolTableRecord
100
AcDbBlockTableRecord
  2
*D9
  0
BLOCK_RECORD
  5
CB
100
AcDbSymbolTableRecord
100
AcDbBlockTableRecord
  2
*D10
  0
BLOCK_RECORD
  5
D9
100
AcDbSymbolTableRecord
100
AcDbBlockTableRecord
  2
*D11
  0
BLOCK_RECORD
  5
E7
100
AcDbSymbolTableRecord
100
AcDbBlockTableRecord
  2
*D12
  0
BLOCK_RECORD
  5
F2
100
AcDbSymbolTableRecord
100
AcDbBlockTableRecord
  2
*D13
  0
BLOCK_RECORD
  5
FE
100
AcDbSymbolTableRecord
100
AcDbBlockTableRecord
  2
*D14
  0
BLOCK_RECORD
  5
10C
100
AcDbSymbolTableRecord
100
AcDbBlockTableRecord
  2
RECTANGLE
  0
BLOCK_RECORD
  5
110
100
AcDbSymbolTableRecord
100
AcDbBlockTableRecord
  2
CIRCLE_-_DIAMETER
  0
BLOCK_RECORD
  5
114
100
AcDbSymbolTableRecord
100
AcDbBlockTableRecord
  2
CIRCLE_-_RADIUS
  0
BLOCK_RECORD
  5
118
100
AcDbSymbolTableRecord
100
AcDbBlockTableRecord
  2
MEASURE_TOOL
  0
BLOCK_RECORD
  5
127
100
AcDbSymbolTableRecord
100
AcDbBlockTableRecord
  2
HORIZONTAL_MEASURE
  0
BLOCK_RECORD
  5
137
100
AcDbSymbolTableRecord
100
AcDbBlockTableRecord
  2
VERTICAL_MEASURE
  0
ENDTAB
  0
ENDSEC
  0
SECTION
  2
BLOCKS
  0
BLOCK
  5
19
100
AcDbEntity
  8
0
100
AcDbBlockBegin
  2
*MODEL_SPACE
 70
     0
 10
0.0
 20
0.0
 30
0.0
  3
*MODEL_SPACE
  1

  0
ENDBLK
  5
1A
100
AcDbEntity
  8
0
100
AcDbBlockEnd
  0
BLOCK
  5
16
100
AcDbEntity
 67
     1
  8
0
100
AcDbBlockBegin
  2
*PAPER_SPACE
 70
     0
 10
0.0
 20
0.0
 30
0.0
  3
*PAPER_SPACE
  1

  0
ENDBLK
  5
17
100
AcDbEntity
 67
     1
  8
0
100
AcDbBlockEnd
  0
BLOCK
  5
3C
100
AcDbEntity
  8
0
100
AcDbBlockBegin
  2
*D0
 70
    66
 10
0.0
 20
0.0
 30
0.0
  3
*D0
  1

  0
LWPOLYLINE
  5
3E
100
AcDbEntity
  8
DIMENSIONS
  6
CONTINUOUS
100
AcDbPolyline
 90
        2
 70
     1
 10
0.0
 20
6.511111
 10
0.0
 20
6.155556
  0
LWPOLYLINE
  5
3F
100
AcDbEntity
  8
DIMENSIONS
  6
CONTINUOUS
100
AcDbPolyline
 90
        2
 70
     1
 10
6.0
 20
6.511111
 10
6.0
 20
6.155556
  0
LINE
  5
40
100
AcDbEntity
  8
DIMENSIONS
  6
CONTINUOUS
100
AcDbLine
 10
3.0
 20
6.4
 30
0.0
 11
0.0
 21
6.4
 31
0.0
  0
LINE
  5
41
100
AcDbEntity
  8
DIMENSIONS
  6
CONTINUOUS
100
AcDbLine
 10
3.0
 20
6.4
 30
0.0
 11
6.0
 21
6.4
 31
0.0
  0
POINT
  5
43
100
AcDbEntity
  8
DEFPOINTS
100
AcDbPoint
 10
6.0
 20
6.4
 30
0.0
  0
POINT
  5
44
100
AcDbEntity
  8
DEFPOINTS
100
AcDbPoint
 10
0.0
 20
6.1
 30
0.0
  0
POINT
  5
45
100
AcDbEntity
  8
DEFPOINTS
100
AcDbPoint
 10
6.0
 20
6.1
 30
0.0
  0
MTEXT
  5
47
100
AcDbEntity
  8
0
100
AcDbMText
 10
3.0
 20
6.545556
 30
0.0
 40
0.111111
 41
0.293685
 71
     5
 72
     1
  1
6.0
  7
_VISDIMTXTSTYLE
  0
SOLID
  5
48
100
AcDbEntity
  8
0
100
AcDbTrace
 10
0.0
 20
6.4
 30
0.0
 11
0.18
 21
6.43
 31
0.0
 12
0.18
 22
6.37
 32
0.0
 13
0.18
 23
6.37
 33
0.0
  0
SOLID
  5
49
100
AcDbEntity
  8
0
100
AcDbTrace
 10
6.0
 20
6.4
 30
0.0
 11
5.82
 21
6.43
 31
0.0
 12
5.82
 22
6.37
 32
0.0
 13
5.82
 23
6.37
 33
0.0
  0
ENDBLK
  5
4A
100
AcDbEntity
  8
0
100
AcDbBlockEnd
  0
BLOCK
  5
4D
100
AcDbEntity
  8
0
100
AcDbBlockBegin
  2
*D1
 70
    66
 10
0.0
 20
0.0
 30
0.0
  3
*D1
  1

  0
LWPOLYLINE
  5
4E
100
AcDbEntity
  8
DIMENSIONS
  6
CONTINUOUS
100
AcDbPolyline
 90
        2
 70
     1
 10
6.088889
 20
0.0
 10
6.444444
 20
0.0
  0
LWPOLYLINE
  5
4F
100
AcDbEntity
  8
DIMENSIONS
  6
CONTINUOUS
100
AcDbPolyline
 90
        2
 70
     1
 10
6.088889
 20
6.0
 10
6.444444
 20
6.0
  0
LINE
  5
50
100
AcDbEntity
  8
DIMENSIONS
  6
CONTINUOUS
100
AcDbLine
 10
6.2
 20
3.0
 30
0.0
 11
6.2
 21
0.0
 31
0.0
  0
LINE
  5
51
100
AcDbEntity
  8
DIMENSIONS
  6
CONTINUOUS
100
AcDbLine
 10
6.2
 20
3.0
 30
0.0
 11
6.2
 21
6.0
 31
0.0
  0
POINT
  5
52
100
AcDbEntity
  8
DEFPOINTS
100
AcDbPoint
 10
6.2
 20
6.0
 30
0.0
  0
POINT
  5
53
100
AcDbEntity
  8
DEFPOINTS
100
AcDbPoint
 10
6.5
 20
0.0
 30
0.0
  0
POINT
  5
54
100
AcDbEntity
  8
DEFPOINTS
100
AcDbPoint
 10
6.5
 20
6.0
 30
0.0
  0
MTEXT
  5
55
100
AcDbEntity
  8
0
100
AcDbMText
 10
6.154444
 20
3.0
 30
0.0
 40
0.111111
 41
0.293685
 71
     5
 72
     1
  1
6.0
  7
_VISDIMTXTSTYLE
 11
0.0
 21
1.0
 31
0.0
  0
SOLID
  5
56
100
AcDbEntity
  8
0
100
AcDbTrace
 10
6.2
 20
0.0
 30
0.0
 11
6.17
 21
0.18
 31
0.0
 12
6.23
 22
0.18
 32
0.0
 13
6.23
 23
0.18
 33
0.0
  0
SOLID
  5
57
100
AcDbEntity
  8
0
100
AcDbTrace
 10
6.2
 20
6.0
 30
0.0
 11
6.17
 21
5.82
 31
0.0
 12
6.23
 22
5.82
 32
0.0
 13
6.23
 23
5.82
 33
0.0
  0
ENDBLK
  5
58
100
AcDbEntity
  8
0
100
AcDbBlockEnd
  0
BLOCK
  5
5B
100
AcDbEntity
  8
0
100
AcDbBlockBegin
  2
*D2
 70
    66
 10
0.0
 20
0.0
 30
0.0
  3
*D2
  1

  0
LWPOLYLINE
  5
5C
100
AcDbEntity
  8
DIMENSIONS
  6
CONTINUOUS
100
AcDbPolyline
 90
        2
 70
     1
 10
4.911111
 20
0.0
 10
4.155556
 20
0.0
  0
LWPOLYLINE
  5
5D
100
AcDbEntity
  8
DIMENSIONS
  6
CONTINUOUS
100
AcDbPolyline
 90
        2
 70
     1
 10
4.911111
 20
2.5
 10
4.155556
 20
2.5
  0
LINE
  5
5E
100
AcDbEntity
  8
DIMENSIONS
  6
CONTINUOUS
100
AcDbLine
 10
4.8
 20
1.25
 30
0.0
 11
4.8
 21
0.0
 31
0.0
  0
LINE
  5
5F
100
AcDbEntity
  8
DIMENSIONS
  6
CONTINUOUS
100
AcDbLine
 10
4.8
 20
1.25
 30
0.0
 11
4.8
 21
2.5
 31
0.0
  0
POINT
  5
60
100
AcDbEntity
  8
DEFPOINTS
100
AcDbPoint
 10
4.8
 20
2.5
 30
0.0
  0
POINT
  5
61
100
AcDbEntity
  8
DEFPOINTS
100
AcDbPoint
 10
4.1
 20
0.0
 30
0.0
  0
POINT
  5
62
100
AcDbEntity
  8
DEFPOINTS
100
AcDbPoint
 10
4.1
 20
2.5
 30
0.0
  0
MTEXT
  5
63
100
AcDbEntity
  8
0
100
AcDbMText
 10
4.654444
 20
1.3
 30
0.0
 40
0.111111
 41
0.386376
 71
     5
 72
     1
  1
2.50
  7
_VISDIMTXTSTYLE
 11
0.0
 21
1.0
 31
0.0
  0
SOLID
  5
64
100
AcDbEntity
  8
0
100
AcDbTrace
 10
4.8
 20
0.0
 30
0.0
 11
4.77
 21
0.18
 31
0.0
 12
4.83
 22
0.18
 32
0.0
 13
4.83
 23
0.18
 33
0.0
  0
SOLID
  5
65
100
AcDbEntity
  8
0
100
AcDbTrace
 10
4.8
 20
2.5
 30
0.0
 11
4.77
 21
2.32
 31
0.0
 12
4.83
 22
2.32
 32
0.0
 13
4.83
 23
2.32
 33
0.0
  0
ENDBLK
  5
66
100
AcDbEntity
  8
0
100
AcDbBlockEnd
  0
BLOCK
  5
69
100
AcDbEntity
  8
0
100
AcDbBlockBegin
  2
*D3
 70
    66
 10
0.0
 20
0.0
 30
0.0
  3
*D3
  1

  0
LWPOLYLINE
  5
6A
100
AcDbEntity
  8
DIMENSIONS
  6
CONTINUOUS
100
AcDbPolyline
 90
        2
 70
     1
 10
2.9
 20
1.388889
 10
2.9
 20
2.444444
  0
LWPOLYLINE
  5
6B
100
AcDbEntity
  8
DIMENSIONS
  6
CONTINUOUS
100
AcDbPolyline
 90
        2
 70
     1
 10
3.09
 20
1.388889
 10
3.09
 20
2.444444
  0
LINE
  5
6C
100
AcDbEntity
  8
DIMENSIONS
  6
CONTINUOUS
100
AcDbLine
 10
2.7334
 20
1.5
 30
0.0
 11
2.9
 21
1.5
 31
0.0
  0
LINE
  5
6D
100
AcDbEntity
  8
DIMENSIONS
  6
CONTINUOUS
100
AcDbLine
 10
3.2566
 20
1.5
 30
0.0
 11
3.09
 21
1.5
 31
0.0
  0
LWPOLYLINE
  5
6E
100
AcDbEntity
  8
DIMENSIONS
  6
CONTINUOUS
100
AcDbPolyline
 90
        2
 70
     1
 10
2.7
 20
1.5
 10
2.9
 20
1.5
  0
POINT
  5
6F
100
AcDbEntity
  8
DEFPOINTS
100
AcDbPoint
 10
3.09
 20
1.5
 30
0.0
  0
POINT
  5
70
100
AcDbEntity
  8
DEFPOINTS
100
AcDbPoint
 10
2.9
 20
2.5
 30
0.0
  0
POINT
  5
71
100
AcDbEntity
  8
DEFPOINTS
100
AcDbPoint
 10
3.09
 20
2.5
 30
0.0
  0
MTEXT
  5
72
100
AcDbEntity
  8
0
100
AcDbMText
 10
2.7
 20
1.645556
 30
0.0
 40
0.111111
 41
0.293685
 71
     5
 72
     1
  1
0.2
  7
_VISDIMTXTSTYLE
  0
SOLID
  5
73
100
AcDbEntity
  8
0
100
AcDbTrace
 10
2.9
 20
1.5
 30
0.0
 11
2.72
 21
1.47
 31
0.0
 12
2.72
 22
1.53
 32
0.0
 13
2.72
 23
1.53
 33
0.0
  0
SOLID
  5
74
100
AcDbEntity
  8
0
100
AcDbTrace
 10
3.09
 20
1.5
 30
0.0
 11
3.27
 21
1.47
 31
0.0
 12
3.27
 22
1.53
 32
0.0
 13
3.27
 23
1.53
 33
0.0
  0
ENDBLK
  5
75
100
AcDbEntity
  8
0
100
AcDbBlockEnd
  0
BLOCK
  5
78
100
AcDbEntity
  8
0
100
AcDbBlockBegin
  2
*D4
 70
    66
 10
0.0
 20
0.0
 30
0.0
  3
*D4
  1

  0
LWPOLYLINE
  5
79
100
AcDbEntity
  8
DIMENSIONS
  6
CONTINUOUS
100
AcDbPolyline
 90
        2
 70
     1
 10
3.85
 20
3.011111
 10
3.85
 20
2.555556
  0
LWPOLYLINE
  5
7A
100
AcDbEntity
  8
DIMENSIONS
  6
CONTINUOUS
100
AcDbPolyline
 90
        2
 70
     1
 10
6.0
 20
3.011111
 10
6.0
 20
2.555556
  0
LINE
  5
7B
100
AcDbEntity
  8
DIMENSIONS
  6
CONTINUOUS
100
AcDbLine
 10
4.925
 20
2.9
 30
0.0
 11
3.85
 21
2.9
 31
0.0
  0
LINE
  5
7C
100
AcDbEntity
  8
DIMENSIONS
  6
CONTINUOUS
100
AcDbLine
 10
4.925
 20
2.9
 30
0.0
 11
6.0
 21
2.9
 31
0.0
  0
POINT
  5
7D
100
AcDbEntity
  8
DEFPOINTS
100
AcDbPoint
 10
6.0
 20
2.9
 30
0.0
  0
POINT
  5
7E
100
AcDbEntity
  8
DEFPOINTS
100
AcDbPoint
 10
3.85
 20
2.5
 30
0.0
  0
POINT
  5
7F
100
AcDbEntity
  8
DEFPOINTS
100
AcDbPoint
 10
6.0
 20
2.5
 30
0.0
  0
MTEXT
  5
80
100
AcDbEntity
  8
0
100
AcDbMText
 10
4.9
 20
3.045556
 30
0.0
 40
0.111111
 41
0.386376
 71
     5
 72
     1
  1
2.15
  7
_VISDIMTXTSTYLE
  0
SOLID
  5
81
100
AcDbEntity
  8
0
100
AcDbTrace
 10
3.85
 20
2.9
 30
0.0
 11
4.03
 21
2.93
 31
0.0
 12
4.03
 22
2.87
 32
0.0
 13
4.03
 23
2.87
 33
0.0
  0
SOLID
  5
82
100
AcDbEntity
  8
0
100
AcDbTrace
 10
6.0
 20
2.9
 30
0.0
 11
5.82
 21
2.93
 31
0.0
 12
5.82
 22
2.87
 32
0.0
 13
5.82
 23
2.87
 33
0.0
  0
ENDBLK
  5
83
100
AcDbEntity
  8
0
100
AcDbBlockEnd
  0
BLOCK
  5
86
100
AcDbEntity
  8
0
100
AcDbBlockBegin
  2
*D5
 70
    66
 10
0.0
 20
0.0
 30
0.0
  3
*D5
  1

  0
LWPOLYLINE
  5
87
100
AcDbEntity
  8
DIMENSIONS
  6
CONTINUOUS
100
AcDbPolyline
 90
        2
 70
     1
 10
0.0
 20
3.011111
 10
0.0
 20
2.555556
  0
LWPOLYLINE
  5
88
100
AcDbEntity
  8
DIMENSIONS
  6
CONTINUOUS
100
AcDbPolyline
 90
        2
 70
     1
 10
2.15
 20
3.011111
 10
2.15
 20
2.555556
  0
LINE
  5
89
100
AcDbEntity
  8
DIMENSIONS
  6
CONTINUOUS
100
AcDbLine
 10
1.075
 20
2.9
 30
0.0
 11
0.0
 21
2.9
 31
0.0
  0
LINE
  5
8A
100
AcDbEntity
  8
DIMENSIONS
  6
CONTINUOUS
100
AcDbLine
 10
1.075
 20
2.9
 30
0.0
 11
2.15
 21
2.9
 31
0.0
  0
POINT
  5
8B
100
AcDbEntity
  8
DEFPOINTS
100
AcDbPoint
 10
2.15
 20
2.9
 30
0.0
  0
POINT
  5
8C
100
AcDbEntity
  8
DEFPOINTS
100
AcDbPoint
 10
0.0
 20
2.5
 30
0.0
  0
POINT
  5
8D
100
AcDbEntity
  8
DEFPOINTS
100
AcDbPoint
 10
2.15
 20
2.5
 30
0.0
  0
MTEXT
  5
8E
100
AcDbEntity
  8
0
100
AcDbMText
 10
1.075
 20
3.045556
 30
0.0
 40
0.111111
 41
0.386376
 71
     5
 72
     1
  1
2.15
  7
_VISDIMTXTSTYLE
  0
SOLID
  5
8F
100
AcDbEntity
  8
0
100
AcDbTrace
 10
0.0
 20
2.9
 30
0.0
 11
0.18
 21
2.93
 31
0.0
 12
0.18
 22
2.87
 32
0.0
 13
0.18
 23
2.87
 33
0.0
  0
SOLID
  5
90
100
AcDbEntity
  8
0
100
AcDbTrace
 10
2.15
 20
2.9
 30
0.0
 11
1.97
 21
2.93
 31
0.0
 12
1.97
 22
2.87
 32
0.0
 13
1.97
 23
2.87
 33
0.0
  0
ENDBLK
  5
91
100
AcDbEntity
  8
0
100
AcDbBlockEnd
  0
BLOCK
  5
94
100
AcDbEntity
  8
0
100
AcDbBlockBegin
  2
*D6
 70
    66
 10
0.0
 20
0.0
 30
0.0
  3
*D6
  1

  0
LWPOLYLINE
  5
95
100
AcDbEntity
  8
DIMENSIONS
  6
CONTINUOUS
100
AcDbPolyline
 90
        2
 70
     1
 10
2.15
 20
2.861111
 10
2.15
 20
2.555556
  0
LWPOLYLINE
  5
96
100
AcDbEntity
  8
DIMENSIONS
  6
CONTINUOUS
100
AcDbPolyline
 90
        2
 70
     1
 10
3.85
 20
2.861111
 10
3.85
 20
2.555556
  0
LINE
  5
97
100
AcDbEntity
  8
DIMENSIONS
  6
CONTINUOUS
100
AcDbLine
 10
3.0
 20
2.75
 30
0.0
 11
2.15
 21
2.75
 31
0.0
  0
LINE
  5
98
100
AcDbEntity
  8
DIMENSIONS
  6
CONTINUOUS
100
AcDbLine
 10
3.0
 20
2.75
 30
0.0
 11
3.85
 21
2.75
 31
0.0
  0
POINT
  5
99
100
AcDbEntity
  8
DEFPOINTS
100
AcDbPoint
 10
3.85
 20
2.75
 30
0.0
  0
POINT
  5
9A
100
AcDbEntity
  8
DEFPOINTS
100
AcDbPoint
 10
2.15
 20
2.5
 30
0.0
  0
POINT
  5
9B
100
AcDbEntity
  8
DEFPOINTS
100
AcDbPoint
 10
3.85
 20
2.5
 30
0.0
  0
MTEXT
  5
9C
100
AcDbEntity
  8
0
100
AcDbMText
 10
3.0
 20
2.895556
 30
0.0
 40
0.111111
 41
0.386376
 71
     5
 72
     1
  1
1.70
  7
_VISDIMTXTSTYLE
  0
SOLID
  5
9D
100
AcDbEntity
  8
0
100
AcDbTrace
 10
2.15
 20
2.75
 30
0.0
 11
2.33
 21
2.78
 31
0.0
 12
2.33
 22
2.72
 32
0.0
 13
2.33
 23
2.72
 33
0.0
  0
SOLID
  5
9E
100
AcDbEntity
  8
0
100
AcDbTrace
 10
3.85
 20
2.75
 30
0.0
 11
3.67
 21
2.78
 31
0.0
 12
3.67
 22
2.72
 32
0.0
 13
3.67
 23
2.72
 33
0.0
  0
ENDBLK
  5
9F
100
AcDbEntity
  8
0
100
AcDbBlockEnd
  0
BLOCK
  5
A2
100
AcDbEntity
  8
0
100
AcDbBlockBegin
  2
*D7
 70
    66
 10
0.0
 20
0.0
 30
0.0
  3
*D7
  1

  0
LWPOLYLINE
  5
A3
100
AcDbEntity
  8
DIMENSIONS
  6
CONTINUOUS
100
AcDbPolyline
 90
        2
 70
     1
 10
0.0
 20
1.911111
 10
0.0
 20
1.555556
  0
LWPOLYLINE
  5
A4
100
AcDbEntity
  8
DIMENSIONS
  6
CONTINUOUS
100
AcDbPolyline
 90
        2
 70
     1
 10
1.5
 20
1.911111
 10
1.5
 20
1.555556
  0
LINE
  5
A5
100
AcDbEntity
  8
DIMENSIONS
  6
CONTINUOUS
100
AcDbLine
 10
0.75
 20
1.8
 30
0.0
 11
0.0
 21
1.8
 31
0.0
  0
LINE
  5
A6
100
AcDbEntity
  8
DIMENSIONS
  6
CONTINUOUS
100
AcDbLine
 10
0.75
 20
1.8
 30
0.0
 11
1.5
 21
1.8
 31
0.0
  0
POINT
  5
A7
100
AcDbEntity
  8
DEFPOINTS
100
AcDbPoint
 10
1.5
 20
1.8
 30
0.0
  0
POINT
  5
A8
100
AcDbEntity
  8
DEFPOINTS
100
AcDbPoint
 10
0.0
 20
1.5
 30
0.0
  0
POINT
  5
A9
100
AcDbEntity
  8
DEFPOINTS
100
AcDbPoint
 10
1.5
 20
1.5
 30
0.0
  0
MTEXT
  5
AA
100
AcDbEntity
  8
0
100
AcDbMText
 10
0.75
 20
1.945556
 30
0.0
 40
0.111111
 41
0.386376
 71
     5
 72
     1
  1
1.50
  7
_VISDIMTXTSTYLE
  0
SOLID
  5
AB
100
AcDbEntity
  8
0
100
AcDbTrace
 10
0.0
 20
1.8
 30
0.0
 11
0.18
 21
1.83
 31
0.0
 12
0.18
 22
1.77
 32
0.0
 13
0.18
 23
1.77
 33
0.0
  0
SOLID
  5
AC
100
AcDbEntity
  8
0
100
AcDbTrace
 10
1.5
 20
1.8
 30
0.0
 11
1.32
 21
1.83
 31
0.0
 12
1.32
 22
1.77
 32
0.0
 13
1.32
 23
1.77
 33
0.0
  0
ENDBLK
  5
AD
100
AcDbEntity
  8
0
100
AcDbBlockEnd
  0
BLOCK
  5
B0
100
AcDbEntity
  8
0
100
AcDbBlockBegin
  2
*D8
 70
    66
 10
0.0
 20
0.0
 30
0.0
  3
*D8
  1

  0
LWPOLYLINE
  5
B1
100
AcDbEntity
  8
DIMENSIONS
  6
CONTINUOUS
100
AcDbPolyline
 90
        2
 70
     1
 10
1.5
 20
1.111111
 10
1.5
 20
0.455556
  0
LWPOLYLINE
  5
B2
100
AcDbEntity
  8
DIMENSIONS
  6
CONTINUOUS
100
AcDbPolyline
 90
        2
 70
     1
 10
2.9
 20
1.111111
 10
2.9
 20
0.455556
  0
LINE
  5
B3
100
AcDbEntity
  8
DIMENSIONS
  6
CONTINUOUS
100
AcDbLine
 10
2.2
 20
1.0
 30
0.0
 11
1.5
 21
1.0
 31
0.0
  0
LINE
  5
B4
100
AcDbEntity
  8
DIMENSIONS
  6
CONTINUOUS
100
AcDbLine
 10
2.2
 20
1.0
 30
0.0
 11
2.9
 21
1.0
 31
0.0
  0
POINT
  5
B5
100
AcDbEntity
  8
DEFPOINTS
100
AcDbPoint
 10
2.9
 20
1.0
 30
0.0
  0
POINT
  5
B6
100
AcDbEntity
  8
DEFPOINTS
100
AcDbPoint
 10
1.5
 20
0.4
 30
0.0
  0
POINT
  5
B7
100
AcDbEntity
  8
DEFPOINTS
100
AcDbPoint
 10
2.9
 20
0.4
 30
0.0
  0
MTEXT
  5
B8
100
AcDbEntity
  8
0
100
AcDbMText
 10
2.2
 20
1.145556
 30
0.0
 40
0.111111
 41
0.386376
 71
     5
 72
     1
  1
1.40
  7
_VISDIMTXTSTYLE
  0
SOLID
  5
B9
100
AcDbEntity
  8
0
100
AcDbTrace
 10
1.5
 20
1.0
 30
0.0
 11
1.68
 21
1.03
 31
0.0
 12
1.68
 22
0.97
 32
0.0
 13
1.68
 23
0.97
 33
0.0
  0
SOLID
  5
BA
100
AcDbEntity
  8
0
100
AcDbTrace
 10
2.9
 20
1.0
 30
0.0
 11
2.72
 21
1.03
 31
0.0
 12
2.72
 22
0.97
 32
0.0
 13
2.72
 23
0.97
 33
0.0
  0
ENDBLK
  5
BB
100
AcDbEntity
  8
0
100
AcDbBlockEnd
  0
BLOCK
  5
BE
100
AcDbEntity
  8
0
100
AcDbBlockBegin
  2
*D9
 70
    66
 10
0.0
 20
0.0
 30
0.0
  3
*D9
  1

  0
LWPOLYLINE
  5
BF
100
AcDbEntity
  8
DIMENSIONS
  6
CONTINUOUS
100
AcDbPolyline
 90
        2
 70
     1
 10
1.188889
 20
0.3
 10
1.344444
 20
0.3
  0
LWPOLYLINE
  5
C0
100
AcDbEntity
  8
DIMENSIONS
  6
CONTINUOUS
100
AcDbPolyline
 90
        2
 70
     1
 10
1.411111
 20
1.5
 10
0.455556
 20
1.5
  0
LINE
  5
C1
100
AcDbEntity
  8
DIMENSIONS
  6
CONTINUOUS
100
AcDbLine
 10
1.3
 20
0.9
 30
0.0
 11
1.3
 21
0.3
 31
0.0
  0
LINE
  5
C2
100
AcDbEntity
  8
DIMENSIONS
  6
CONTINUOUS
100
AcDbLine
 10
1.3
 20
0.9
 30
0.0
 11
1.3
 21
1.5
 31
0.0
  0
POINT
  5
C3
100
AcDbEntity
  8
DEFPOINTS
100
AcDbPoint
 10
1.3
 20
1.5
 30
0.0
  0
POINT
  5
C4
100
AcDbEntity
  8
DEFPOINTS
100
AcDbPoint
 10
1.4
 20
0.3
 30
0.0
  0
POINT
  5
C5
100
AcDbEntity
  8
DEFPOINTS
100
AcDbPoint
 10
0.4
 20
1.5
 30
0.0
  0
MTEXT
  5
C6
100
AcDbEntity
  8
0
100
AcDbMText
 10
0.954444
 20
0.9
 30
0.0
 40
0.111111
 41
0.386376
 71
     5
 72
     1
  1
1.20
  7
_VISDIMTXTSTYLE
 11
0.0
 21
1.0
 31
0.0
  0
SOLID
  5
C7
100
AcDbEntity
  8
0
100
AcDbTrace
 10
1.3
 20
0.3
 30
0.0
 11
1.27
 21
0.48
 31
0.0
 12
1.33
 22
0.48
 32
0.0
 13
1.33
 23
0.48
 33
0.0
  0
SOLID
  5
C8
100
AcDbEntity
  8
0
100
AcDbTrace
 10
1.3
 20
1.5
 30
0.0
 11
1.27
 21
1.32
 31
0.0
 12
1.33
 22
1.32
 32
0.0
 13
1.33
 23
1.32
 33
0.0
  0
ENDBLK
  5
C9
100
AcDbEntity
  8
0
100
AcDbBlockEnd
  0
BLOCK
  5
CC
100
AcDbEntity
  8
0
100
AcDbBlockBegin
  2
*D10
 70
    66
 10
0.0
 20
0.0
 30
0.0
  3
*D10
  1

  0
LWPOLYLINE
  5
CD
100
AcDbEntity
  8
DIMENSIONS
  6
CONTINUOUS
100
AcDbPolyline
 90
        2
 70
     1
 10
0.988889
 20
0.0
 10
2.744444
 20
0.0
  0
LWPOLYLINE
  5
CE
100
AcDbEntity
  8
DIMENSIONS
  6
CONTINUOUS
100
AcDbPolyline
 90
        2
 70
     1
 10
0.988889
 20
0.3
 10
1.444444
 20
0.3
  0
LINE
  5
CF
100
AcDbEntity
  8
DIMENSIONS
  6
CONTINUOUS
100
AcDbLine
 10
1.1
 20
0.15
 30
0.0
 11
1.1
 21
0.0
 31
0.0
  0
LINE
  5
D0
100
AcDbEntity
  8
DIMENSIONS
  6
CONTINUOUS
100
AcDbLine
 10
1.1
 20
0.15
 30
0.0
 11
1.1
 21
0.3
 31
0.0
  0
POINT
  5
D1
100
AcDbEntity
  8
DEFPOINTS
100
AcDbPoint
 10
1.1
 20
0.3
 30
0.0
  0
POINT
  5
D2
100
AcDbEntity
  8
DEFPOINTS
100
AcDbPoint
 10
2.8
 20
0.0
 30
0.0
  0
POINT
  5
D3
100
AcDbEntity
  8
DEFPOINTS
100
AcDbPoint
 10
1.5
 20
0.3
 30
0.0
  0
MTEXT
  5
D4
100
AcDbEntity
  8
0
100
AcDbMText
 10
0.804444
 20
0.15
 30
0.0
 40
0.111111
 41
0.386376
 71
     5
 72
     1
  1
0.30
  7
_VISDIMTXTSTYLE
 11
0.0
 21
1.0
 31
0.0
  0
SOLID
  5
D5
100
AcDbEntity
  8
0
100
AcDbTrace
 10
1.1
 20
0.0
 30
0.0
 11
1.07
 21
0.18
 31
0.0
 12
1.13
 22
0.18
 32
0.0
 13
1.13
 23
0.18
 33
0.0
  0
SOLID
  5
D6
100
AcDbEntity
  8
0
100
AcDbTrace
 10
1.1
 20
0.3
 30
0.0
 11
1.07
 21
0.12
 31
0.0
 12
1.13
 22
0.12
 32
0.0
 13
1.13
 23
0.12
 33
0.0
  0
ENDBLK
  5
D7
100
AcDbEntity
  8
0
100
AcDbBlockEnd
  0
BLOCK
  5
DA
100
AcDbEntity
  8
0
100
AcDbBlockBegin
  2
*D11
 70
    66
 10
0.0
 20
0.0
 30
0.0
  3
*D11
  1

  0
LWPOLYLINE
  5
DB
100
AcDbEntity
  8
DIMENSIONS
  6
CONTINUOUS
100
AcDbPolyline
 90
        2
 70
     1
 10
3.1
 20
0.511111
 10
3.1
 20
0.055556
  0
LWPOLYLINE
  5
DC
100
AcDbEntity
  8
DIMENSIONS
  6
CONTINUOUS
100
AcDbPolyline
 90
        2
 70
     1
 10
6.0
 20
0.511111
 10
6.0
 20
0.055556
  0
LINE
  5
DD
100
AcDbEntity
  8
DIMENSIONS
  6
CONTINUOUS
100
AcDbLine
 10
4.55
 20
0.4
 30
0.0
 11
3.1
 21
0.4
 31
0.0
  0
LINE
  5
DE
100
AcDbEntity
  8
DIMENSIONS
  6
CONTINUOUS
100
AcDbLine
 10
4.55
 20
0.4
 30
0.0
 11
6.0
 21
0.4
 31
0.0
  0
POINT
  5
DF
100
AcDbEntity
  8
DEFPOINTS
100
AcDbPoint
 10
6.0
 20
0.4
 30
0.0
  0
POINT
  5
E0
100
AcDbEntity
  8
DEFPOINTS
100
AcDbPoint
 10
3.1
 20
0.0
 30
0.0
  0
POINT
  5
E1
100
AcDbEntity
  8
DEFPOINTS
100
AcDbPoint
 10
6.0
 20
0.0
 30
0.0
  0
MTEXT
  5
E2
100
AcDbEntity
  8
0
100
AcDbMText
 10
4.6
 20
0.545556
 30
0.0
 40
0.111111
 41
0.386376
 71
     5
 72
     1
  1
2.90
  7
_VISDIMTXTSTYLE
  0
SOLID
  5
E3
100
AcDbEntity
  8
0
100
AcDbTrace
 10
3.1
 20
0.4
 30
0.0
 11
3.28
 21
0.43
 31
0.0
 12
3.28
 22
0.37
 32
0.0
 13
3.28
 23
0.37
 33
0.0
  0
SOLID
  5
E4
100
AcDbEntity
  8
0
100
AcDbTrace
 10
6.0
 20
0.4
 30
0.0
 11
5.82
 21
0.43
 31
0.0
 12
5.82
 22
0.37
 32
0.0
 13
5.82
 23
0.37
 33
0.0
  0
ENDBLK
  5
E5
100
AcDbEntity
  8
0
100
AcDbBlockEnd
  0
BLOCK
  5
E8
100
AcDbEntity
  8
0
100
AcDbBlockBegin
  2
*D12
 70
    66
 10
0.0
 20
0.0
 30
0.0
  3
*D12
  1

  0
LWPOLYLINE
  5
E9
100
AcDbEntity
  8
DIMENSIONS
  6
CONTINUOUS
100
AcDbPolyline
 90
        2
 70
     1
 10
3.81875
 20
2.5
 10
3.88125
 20
2.5
  0
LWPOLYLINE
  5
EA
100
AcDbEntity
  8
DIMENSIONS
  6
CONTINUOUS
100
AcDbPolyline
 90
        2
 70
     1
 10
3.85
 20
2.46875
 10
3.85
 20
2.53125
  0
LWPOLYLINE
  5
EB
100
AcDbEntity
  8
DIMENSIONS
  6
CONTINUOUS
100
AcDbPolyline
 90
        3
 70
     0
 10
4.2
 20
2.1
 10
3.95
 20
2.1
 10
3.882742
 20
2.369031
  0
MTEXT
  5
EC
100
AcDbEntity
  8
0
100
AcDbMText
 10
4.2
 20
2.245556
 30
0.0
 40
0.111111
 41
0.562318
 71
     5
 72
     1
  1
%%c0.27
  7
_VISDIMTXTSTYLE
  0
POINT
  5
ED
100
AcDbEntity
  8
DEFPOINTS
100
AcDbPoint
 10
3.817258
 20
2.630969
 30
0.0
  0
POINT
  5
EE
100
AcDbEntity
  8
DEFPOINTS
100
AcDbPoint
 10
3.882742
 20
2.369031
 30
0.0
  0
SOLID
  5
EF
100
AcDbEntity
  8
0
100
AcDbTrace
 10
3.882742
 20
2.369031
 30
0.0
 11
3.955503
 21
2.201681
 31
0.0
 12
3.897294
 22
2.187129
 32
0.0
 13
3.897294
 23
2.187129
 33
0.0
  0
ENDBLK
  5
F0
100
AcDbEntity
  8
0
100
AcDbBlockEnd
  0
BLOCK
  5
F3
100
AcDbEntity
  8
0
100
AcDbBlockBegin
  2
*D13
 70
    66
 10
0.0
 20
0.0
 30
0.0
  3
*D13
  1

  0
LWPOLYLINE
  5
F4
100
AcDbEntity
  8
DIMENSIONS
  6
CONTINUOUS
100
AcDbPolyline
 90
        2
 70
     1
 10
2.11875
 20
2.5
 10
2.18125
 20
2.5
  0
LWPOLYLINE
  5
F5
100
AcDbEntity
  8
DIMENSIONS
  6
CONTINUOUS
100
AcDbPolyline
 90
        2
 70
     1
 10
2.15
 20
2.46875
 10
2.15
 20
2.53125
  0
LWPOLYLINE
  5
F6
100
AcDbEntity
  8
DIMENSIONS
  6
CONTINUOUS
100
AcDbPolyline
 90
        3
 70
     0
 10
1.75
 20
2.1
 10
2.0
 20
2.1
 10
2.102598
 20
2.373596
  0
MTEXT
  5
F7
100
AcDbEntity
  8
0
100
AcDbMText
 10
1.75
 20
1.954444
 30
0.0
 40
0.111111
 41
0.562318
 71
     5
 72
     1
  1
%%c0.27
  7
_VISDIMTXTSTYLE
  0
POINT
  5
F8
100
AcDbEntity
  8
DEFPOINTS
100
AcDbPoint
 10
2.197402
 20
2.626404
 30
0.0
  0
POINT
  5
F9
100
AcDbEntity
  8
DEFPOINTS
100
AcDbPoint
 10
2.102598
 20
2.373596
 30
0.0
  0
SOLID
  5
FA
100
AcDbEntity
  8
0
100
AcDbTrace
 10
2.102598
 20
2.373596
 30
0.0
 11
2.067486
 21
2.194523
 31
0.0
 12
2.011306
 22
2.21559
 32
0.0
 13
2.011306
 23
2.21559
 33
0.0
  0
ENDBLK
  5
FB
100
AcDbEntity
  8
0
100
AcDbBlockEnd
  0
BLOCK
  5
FF
100
AcDbEntity
  8
0
100
AcDbBlockBegin
  2
*D14
 70
    66
 10
0.0
 20
0.0
 30
0.0
  3
*D14
  1

  0
LWPOLYLINE
  5
100
100
AcDbEntity
  8
DIMENSIONS
  6
CONTINUOUS
100
AcDbPolyline
 90
        2
 70
     1
 10
1.5
 20
0.461111
 10
1.5
 20
0.305556
  0
LWPOLYLINE
  5
101
100
AcDbEntity
  8
DIMENSIONS
  6
CONTINUOUS
100
AcDbPolyline
 90
        2
 70
     1
 10
2.8
 20
0.461111
 10
2.8
 20
0.055556
  0
LINE
  5
102
100
AcDbEntity
  8
DIMENSIONS
  6
CONTINUOUS
100
AcDbLine
 10
2.15
 20
0.35
 30
0.0
 11
1.5
 21
0.35
 31
0.0
  0
LINE
  5
103
100
AcDbEntity
  8
DIMENSIONS
  6
CONTINUOUS
100
AcDbLine
 10
2.15
 20
0.35
 30
0.0
 11
2.8
 21
0.35
 31
0.0
  0
POINT
  5
104
100
AcDbEntity
  8
DEFPOINTS
100
AcDbPoint
 10
2.8
 20
0.35
 30
0.0
  0
POINT
  5
105
100
AcDbEntity
  8
DEFPOINTS
100
AcDbPoint
 10
1.5
 20
0.25
 30
0.0
  0
POINT
  5
106
100
AcDbEntity
  8
DEFPOINTS
100
AcDbPoint
 10
2.8
 20
0.0
 30
0.0
  0
MTEXT
  5
107
100
AcDbEntity
  8
0
100
AcDbMText
 10
2.17
 20
0.485556
 30
0.0
 40
0.111111
 41
0.386376
 71
     5
 72
     1
  1
1.30
  7
_VISDIMTXTSTYLE
  0
SOLID
  5
108
100
AcDbEntity
  8
0
100
AcDbTrace
 10
1.5
 20
0.35
 30
0.0
 11
1.68
 21
0.38
 31
0.0
 12
1.68
 22
0.32
 32
0.0
 13
1.68
 23
0.32
 33
0.0
  0
SOLID
  5
109
100
AcDbEntity
  8
0
100
AcDbTrace
 10
2.8
 20
0.35
 30
0.0
 11
2.62
 21
0.38
 31
0.0
 12
2.62
 22
0.32
 32
0.0
 13
2.62
 23
0.32
 33
0.0
  0
ENDBLK
  5
10A
100
AcDbEntity
  8
0
100
AcDbBlockEnd
  0
BLOCK
  5
10D
100
AcDbEntity
  8
0
100
AcDbBlockBegin
  2
RECTANGLE
 70
     2
 10
0.0
 20
0.0
 30
0.0
  3
RECTANGLE
  1

  0
LWPOLYLINE
  5
10E
102
{ACAD_REACTORS
330
11B
102
}
100
AcDbEntity
  8
0
  6
CONTINUOUS
 62
     7
100
AcDbPolyline
 90
        4
 70
     1
 10
1.0
 20
1.0
 10
1.75
 20
1.0
 10
1.75
 20
2.0
 10
1.0
 20
2.0
  0
ENDBLK
  5
10F
100
AcDbEntity
  8
0
100
AcDbBlockEnd
  0
BLOCK
  5
111
100
AcDbEntity
  8
0
100
AcDbBlockBegin
  2
CIRCLE_-_DIAMETER
 70
     0
 10
0.0
 20
0.0
 30
0.0
  3
CIRCLE_-_DIAMETER
  1

  0
LWPOLYLINE
  5
112
102
{ACAD_REACTORS
330
11B
102
}
100
AcDbEntity
  8
0
  6
CONTINUOUS
 62
     7
100
AcDbPolyline
 90
        2
 70
     1
 10
1.0
 20
1.5
 42
-1.0
 10
2.0
 20
1.5
 42
-1.0
  0
ENDBLK
  5
113
100
AcDbEntity
  8
0
100
AcDbBlockEnd
  0
BLOCK
  5
115
100
AcDbEntity
  8
0
100
AcDbBlockBegin
  2
CIRCLE_-_RADIUS
 70
     0
 10
0.0
 20
0.0
 30
0.0
  3
CIRCLE_-_RADIUS
  1

  0
LWPOLYLINE
  5
116
102
{ACAD_REACTORS
330
11B
102
}
100
AcDbEntity
  8
0
  6
CONTINUOUS
 62
     7
100
AcDbPolyline
 90
        2
 70
     1
 10
1.0
 20
1.5
 42
-1.0
 10
2.0
 20
1.5
 42
-1.0
  0
ENDBLK
  5
117
100
AcDbEntity
  8
0
100
AcDbBlockEnd
  0
BLOCK
  5
119
100
AcDbEntity
  8
0
100
AcDbBlockBegin
  2
MEASURE_TOOL
 70
     0
 10
0.0
 20
0.0
 30
0.0
  3
MEASURE_TOOL
  1

  0
LWPOLYLINE
  5
11A
102
{ACAD_REACTORS
330
11B
102
}
100
AcDbEntity
  8
DIMENSIONS
  6
CONTINUOUS
100
AcDbPolyline
 90
        6
 70
     1
 10
0.0
 20
0.0
 10
0.0
 20
0.24893
 42
-0.414223
 10
0.062233
 20
0.311163
 10
0.358446
 20
0.311163
 42
-0.414223
 10
0.482911
 20
0.186698
 10
0.482911
 20
0.0
  0
HATCH
  5
11B
100
AcDbEntity
  8
DIMENSIONS
 62
   254
100
AcDbHatch
 10
0.0
 20
0.0
 30
0.0
210
0.0
220
0.0
230
1.0
  2
SOLID
 70
     1
 71
     1
 91
        1
 92
        3
 72
     1
 73
     1
 93
        6
 10
0.0
 20
0.0
 42
0.0
 10
0.0
 20
0.2489301095920139
 42
-0.4142231524190839
 10
0.0622325273980043
 20
0.3111626369900173
 42
0.0
 10
0.3584459352447917
 20
0.3111626369900173
 42
-0.4142231524190798
 10
0.4829109900407986
 20
0.1866975821940104
 42
0.0
 10
0.4829109900407986
 20
0.0
 42
0.0
 97
        6
330
32
330
33
330
10E
330
112
330
116
330
11A
 75
     0
 76
     1
 98
        0
  0
LINE
  5
11C
100
AcDbEntity
  8
DIMENSIONS
  6
CONTINUOUS
100
AcDbLine
 10
0.482911
 20
0.031116
 30
0.0
 11
1.0
 21
0.031116
 31
0.0
  0
LINE
  5
11D
100
AcDbEntity
  8
DIMENSIONS
  6
CONTINUOUS
100
AcDbLine
 10
1.0
 20
0.062233
 30
0.0
 11
1.0
 21
0.0
 31
0.0
  0
LINE
  5
11E
100
AcDbEntity
  8
DIMENSIONS
  6
CONTINUOUS
100
AcDbLine
 10
0.913818
 20
0.031116
 30
0.0
 11
0.913818
 21
0.046674
 31
0.0
  0
LINE
  5
11F
100
AcDbEntity
  8
DIMENSIONS
  6
CONTINUOUS
100
AcDbLine
 10
0.827637
 20
0.031116
 30
0.0
 11
0.827637
 21
0.062233
 31
0.0
  0
LINE
  5
120
100
AcDbEntity
  8
DIMENSIONS
  6
CONTINUOUS
100
AcDbLine
 10
0.741455
 20
0.031116
 30
0.0
 11
0.741455
 21
0.046674
 31
0.0
  0
LINE
  5
121
100
AcDbEntity
  8
DIMENSIONS
  6
CONTINUOUS
100
AcDbLine
 10
0.655274
 20
0.031116
 30
0.0
 11
0.655274
 21
0.062233
 31
0.0
  0
LINE
  5
122
100
AcDbEntity
  8
DIMENSIONS
  6
CONTINUOUS
100
AcDbLine
 10
0.569092
 20
0.031116
 30
0.0
 11
0.569092
 21
0.046674
 31
0.0
  0
MTEXT
  5
123
100
AcDbEntity
  8
DIMENSIONS
100
AcDbMText
 10
0.241455
 20
0.155581
 30
0.0
 40
0.121339
 41
0.482911
 71
     5
 72
     5
  1
\C7;\fArial|b0|i0|;\H0.12133881635964;1 in.
  0
LWPOLYLINE
  5
124
102
{ACAD_REACTORS
330
125
102
}
100
AcDbEntity
  8
DIMENSIONS
  6
CONTINUOUS
100
AcDbPolyline
 90
        4
 70
     1
 10
0.482911
 20
0.031116
 10
1.0
 20
0.031116
 10
1.0
 20
0.062233
 10
0.482911
 20
0.062233
  0
HATCH
  5
125
100
AcDbEntity
  8
DIMENSIONS
 62
     2
100
AcDbHatch
 10
0.0
 20
0.0
 30
0.0
210
0.0
220
0.0
230
1.0
  2
SOLID
 70
     1
 71
     1
 91
        1
 92
        3
 72
     0
 73
     1
 93
        4
 10
0.4829109900407986
 20
0.0311162636990017
 10
1.0
 20
0.0311162636990017
 10
1.0
 20
0.0622325273980035
 10
0.4829109900407986
 20
0.0622325273980035
 97
        1
330
124
 75
     0
 76
     1
 98
        0
  0
ENDBLK
  5
126
100
AcDbEntity
  8
0
100
AcDbBlockEnd
  0
BLOCK
  5
128
100
AcDbEntity
  8
0
100
AcDbBlockBegin
  2
HORIZONTAL_MEASURE
 70
     0
 10
0.0
 20
0.0
 30
0.0
  3
HORIZONTAL_MEASURE
  1

  0
LWPOLYLINE
  5
129
102
{ACAD_REACTORS
330
12A
102
}
100
AcDbEntity
  8
DIMENSIONS
  6
CONTINUOUS
100
AcDbPolyline
 90
        6
 70
     1
 10
0.0
 20
0.5
 10
0.0
 20
0.74893
 42
-0.414223
 10
0.062233
 20
0.811163
 10
0.358446
 20
0.811163
 42
-0.414223
 10
0.482911
 20
0.686698
 10
0.482911
 20
0.5
  0
HATCH
  5
12A
100
AcDbEntity
  8
DIMENSIONS
 62
   254
100
AcDbHatch
 10
0.0
 20
0.0
 30
0.0
210
0.0
220
0.0
230
1.0
  2
SOLID
 70
     1
 71
     1
 91
        1
 92
        3
 72
     1
 73
     1
 93
        6
 10
0.0
 20
0.5
 42
0.0
 10
0.0
 20
0.7489301095920139
 42
-0.4142231524190839
 10
0.0622325273980043
 20
0.8111626369900173
 42
0.0
 10
0.3584459352447917
 20
0.8111626369900172
 42
-0.4142231524190798
 10
0.4829109900407986
 20
0.6866975821940105
 42
0.0
 10
0.4829109900407986
 20
0.5
 42
0.0
 97
        1
330
129
 75
     0
 76
     1
 98
        0
  0
LINE
  5
12B
100
AcDbEntity
  8
DIMENSIONS
  6
CONTINUOUS
100
AcDbLine
 10
0.482911
 20
0.531116
 30
0.0
 11
1.0
 21
0.531116
 31
0.0
  0
LINE
  5
12C
100
AcDbEntity
  8
DIMENSIONS
  6
CONTINUOUS
100
AcDbLine
 10
1.0
 20
0.562233
 30
0.0
 11
1.0
 21
0.531116
 31
0.0
  0
LINE
  5
12D
100
AcDbEntity
  8
DIMENSIONS
  6
CONTINUOUS
100
AcDbLine
 10
1.0
 20
0.531116
 30
0.0
 11
1.0
 21
0.0
 31
0.0
  0
LINE
  5
12E
100
AcDbEntity
  8
DIMENSIONS
  6
CONTINUOUS
100
AcDbLine
 10
0.913818
 20
0.531116
 30
0.0
 11
0.913818
 21
0.546674
 31
0.0
  0
LINE
  5
12F
100
AcDbEntity
  8
DIMENSIONS
  6
CONTINUOUS
100
AcDbLine
 10
0.827637
 20
0.531116
 30
0.0
 11
0.827637
 21
0.562233
 31
0.0
  0
LINE
  5
130
100
AcDbEntity
  8
DIMENSIONS
  6
CONTINUOUS
100
AcDbLine
 10
0.741455
 20
0.531116
 30
0.0
 11
0.741455
 21
0.546674
 31
0.0
  0
LINE
  5
131
100
AcDbEntity
  8
DIMENSIONS
  6
CONTINUOUS
100
AcDbLine
 10
0.655274
 20
0.531116
 30
0.0
 11
0.655274
 21
0.562233
 31
0.0
  0
LINE
  5
132
100
AcDbEntity
  8
DIMENSIONS
  6
CONTINUOUS
100
AcDbLine
 10
0.569092
 20
0.531116
 30
0.0
 11
0.569092
 21
0.546674
 31
0.0
  0
MTEXT
  5
133
100
AcDbEntity
  8
DIMENSIONS
100
AcDbMText
 10
0.241455
 20
0.655581
 30
0.0
 40
0.121339
 41
0.482911
 71
     5
 72
     5
  1
\C7;\fArial|b0|i0|;\H0.12133881635964;1 in.
  0
LWPOLYLINE
  5
134
102
{ACAD_REACTORS
330
135
102
}
100
AcDbEntity
  8
DIMENSIONS
  6
CONTINUOUS
100
AcDbPolyline
 90
        4
 70
     1
 10
0.482911
 20
0.531116
 10
1.0
 20
0.531116
 10
1.0
 20
0.562233
 10
0.482911
 20
0.562233
  0
HATCH
  5
135
100
AcDbEntity
  8
DIMENSIONS
 62
     2
100
AcDbHatch
 10
0.0
 20
0.0
 30
0.0
210
0.0
220
0.0
230
1.0
  2
SOLID
 70
     1
 71
     1
 91
        1
 92
        3
 72
     0
 73
     1
 93
        4
 10
0.4829109900407987
 20
0.5311162636990018
 10
0.9999999999999414
 20
0.5311162636990018
 10
0.9999999999999414
 20
0.5622325273980035
 10
0.4829109900407987
 20
0.5622325273980035
 97
        1
330
134
 75
     0
 76
     1
 98
        0
  0
ENDBLK
  5
136
100
AcDbEntity
  8
0
100
AcDbBlockEnd
  0
BLOCK
  5
138
100
AcDbEntity
  8
0
100
AcDbBlockBegin
  2
VERTICAL_MEASURE
 70
     0
 10
0.0
 20
0.0
 30
0.0
  3
VERTICAL_MEASURE
  1

  0
LWPOLYLINE
  5
139
102
{ACAD_REACTORS
330
13A
102
}
100
AcDbEntity
  8
DIMENSIONS
  6
CONTINUOUS
100
AcDbPolyline
 90
        6
 70
     1
 10
0.5
 20
0.0
 10
0.25107
 20
0.0
 42
-0.414223
 10
0.188837
 20
0.062233
 10
0.188837
 20
0.358446
 42
-0.414223
 10
0.313302
 20
0.482911
 10
0.5
 20
0.482911
  0
HATCH
  5
13A
100
AcDbEntity
  8
DIMENSIONS
 62
   254
100
AcDbHatch
 10
0.0
 20
0.0
 30
0.0
210
0.0
220
0.0
230
1.0
  2
SOLID
 70
     1
 71
     1
 91
        1
 92
        3
 72
     1
 73
     1
 93
        6
 10
0.5
 20
0.0
 42
0.0
 10
0.2510698904079862
 20
0.0
 42
-0.4142231524190839
 10
0.1888373630099827
 20
0.0622325273980043
 42
0.0
 10
0.1888373630099827
 20
0.3584459352447917
 42
-0.4142231524190798
 10
0.3133024178059896
 20
0.4829109900407986
 42
0.0
 10
0.5
 20
0.4829109900407986
 42
0.0
 97
        1
330
139
 75
     0
 76
     1
 98
        0
  0
LINE
  5
13B
100
AcDbEntity
  8
DIMENSIONS
  6
CONTINUOUS
100
AcDbLine
 10
0.468884
 20
0.482911
 30
0.0
 11
0.468884
 21
1.0
 31
0.0
  0
LINE
  5
13C
100
AcDbEntity
  8
DIMENSIONS
  6
CONTINUOUS
100
AcDbLine
 10
0.437767
 20
1.0
 30
0.0
 11
0.468884
 21
1.0
 31
0.0
  0
LINE
  5
13D
100
AcDbEntity
  8
DIMENSIONS
  6
CONTINUOUS
100
AcDbLine
 10
0.468884
 20
1.0
 30
0.0
 11
1.0
 21
1.0
 31
0.0
  0
LINE
  5
13E
100
AcDbEntity
  8
DIMENSIONS
  6
CONTINUOUS
100
AcDbLine
 10
0.468884
 20
0.913818
 30
0.0
 11
0.453326
 21
0.913818
 31
0.0
  0
LINE
  5
13F
100
AcDbEntity
  8
DIMENSIONS
  6
CONTINUOUS
100
AcDbLine
 10
0.468884
 20
0.827637
 30
0.0
 11
0.437767
 21
0.827637
 31
0.0
  0
LINE
  5
140
100
AcDbEntity
  8
DIMENSIONS
  6
CONTINUOUS
100
AcDbLine
 10
0.468884
 20
0.741455
 30
0.0
 11
0.453326
 21
0.741455
 31
0.0
  0
LINE
  5
141
100
AcDbEntity
  8
DIMENSIONS
  6
CONTINUOUS
100
AcDbLine
 10
0.468884
 20
0.655274
 30
0.0
 11
0.437767
 21
0.655274
 31
0.0
  0
LINE
  5
142
100
AcDbEntity
  8
DIMENSIONS
  6
CONTINUOUS
100
AcDbLine
 10
0.468884
 20
0.569092
 30
0.0
 11
0.453326
 21
0.569092
 31
0.0
  0
MTEXT
  5
143
100
AcDbEntity
  8
DIMENSIONS
100
AcDbMText
 10
0.344419
 20
0.241455
 30
0.0
 40
0.121339
 41
0.482911
 71
     5
 72
     5
  1
\C7;\fArial|b0|i0|;\H0.12133881635964;1 in.
 11
0.0
 21
1.0
 31
0.0
  0
LWPOLYLINE
  5
144
102
{ACAD_REACTORS
330
145
102
}
100
AcDbEntity
  8
DIMENSIONS
  6
CONTINUOUS
100
AcDbPolyline
 90
        4
 70
     1
 10
0.468884
 20
0.482911
 10
0.468884
 20
1.0
 10
0.437767
 20
1.0
 10
0.437767
 20
0.482911
  0
HATCH
  5
145
100
AcDbEntity
  8
DIMENSIONS
 62
     2
100
AcDbHatch
 10
0.0
 20
0.0
 30
0.0
210
0.0
220
0.0
230
1.0
  2
SOLID
 70
     1
 71
     1
 91
        1
 92
        3
 72
     0
 73
     1
 93
        4
 10
0.4688837363009983
 20
0.4829109900407986
 10
0.4688837363009983
 20
1.0000000000000058
 10
0.4377674726019965
 20
1.0000000000000058
 10
0.4377674726019965
 20
0.4829109900407986
 97
        1
330
144
 75
     0
 76
     1
 98
        0
  0
ENDBLK
  5
146
100
AcDbEntity
  8
0
100
AcDbBlockEnd
  0
ENDSEC
  0
SECTION
  2
ENTITIES
  0
LWPOLYLINE
  5
32
102
{ACAD_REACTORS
330
31
102
}
100
AcDbEntity
  8
0
  6
CONTINUOUS
 62
     7
100
AcDbPolyline
 90
        2
 70
     1
 10
2.015
 20
2.5
 42
-1.0
 10
2.285
 20
2.5
 42
-1.0
  0
LWPOLYLINE
  5
33
102
{ACAD_REACTORS
330
31
102
}
100
AcDbEntity
  8
0
  6
CONTINUOUS
 62
     7
100
AcDbPolyline
 90
        2
 70
     1
 10
3.715
 20
2.5
 42
-1.0
 10
3.985
 20
2.5
 42
-1.0
  0
LWPOLYLINE
  5
34
102
{ACAD_REACTORS
330
31
102
}
100
AcDbEntity
  8
0
  6
CONTINUOUS
 62
     7
100
AcDbPolyline
 90
        4
 70
     0
 10
0.0
 20
1.5
 10
1.5
 20
1.5
 10
1.5
 20
0.3
 10
1.5
 20
0.54
  0
LINE
  5
35
102
{ACAD_REACTORS
330
31
102
}
100
AcDbEntity
  8
0
  6
CONTINUOUS
 62
     7
100
AcDbLine
 10
0.0
 20
2.0
 30
0.0
 11
0.0
 21
3.0
 31
0.0
  0
LINE
  5
36
102
{ACAD_REACTORS
330
31
102
}
100
AcDbEntity
  8
0
  6
CONTINUOUS
 62
     7
100
AcDbLine
 10
0.0
 20
2.4
 30
0.0
 11
0.0
 21
1.5
 31
0.0
  0
LWPOLYLINE
  5
37
102
{ACAD_REACTORS
330
31
102
}
100
AcDbEntity
  8
0
  6
CONTINUOUS
 62
     7
100
AcDbPolyline
 90
        4
 70
     0
 10
0.0
 20
3.0
 10
0.0
 20
6.0
 10
6.0
 20
6.0
 10
6.0
 20
3.0
  0
LINE
  5
38
102
{ACAD_REACTORS
330
31
102
}
100
AcDbEntity
  8
0
  6
CONTINUOUS
 62
     7
100
AcDbLine
 10
1.5
 20
0.3
 30
0.0
 11
2.8
 21
0.0
 31
0.0
  0
LWPOLYLINE
  5
39
102
{ACAD_REACTORS
330
31
102
}
100
AcDbEntity
  8
0
  6
CONTINUOUS
 62
     7
100
AcDbPolyline
 90
        3
 70
     0
 10
6.0
 20
3.0
 10
6.0
 20
0.0
 10
3.1
 20
0.0
  0
LWPOLYLINE
  5
3A
102
{ACAD_REACTORS
330
31
102
}
100
AcDbEntity
  8
0
  6
CONTINUOUS
 62
     7
100
AcDbPolyline
 90
        5
 70
     0
 10
2.8
 20
0.0
 10
2.9
 20
0.0
 10
2.9
 20
2.5
 10
3.1
 20
2.5
 10
3.1
 20
0.0
  0
DIMENSION
  5
4B
100
AcDbEntity
  8
0
100
AcDbDimension
  2
*D0
 10
6.0
 20
6.4
 30
0.0
 11
3.0
 21
6.545556
 31
0.0
 70
    32
  3
STANDARD
100
AcDbAlignedDimension
 13
0.0
 23
6.1
 33
0.0
 14
6.0
 24
6.1
 34
0.0
100
AcDbRotatedDimension
1001
ACAD
1000
DSTYLE
1002
{
1070
   140
1040
0.111111
1070
    77
1070
     1
1070
    73
1070
     0
1070
   271
1070
     1
1070
   179
1070
     1
1070
   270
1070
     2
1070
   277
1070
     2
1070
   276
1070
     0
1002
}
  0
DIMENSION
  5
59
100
AcDbEntity
  8
0
100
AcDbDimension
  2
*D1
 10
6.2
 20
6.0
 30
0.0
 11
6.154444
 21
3.0
 31
0.0
 70
    32
  3
STANDARD
100
AcDbAlignedDimension
 13
6.5
 23
0.0
 33
0.0
 14
6.5
 24
6.0
 34
0.0
 50
90.0
100
AcDbRotatedDimension
1001
ACAD
1000
DSTYLE
1002
{
1070
   140
1040
0.111111
1070
    77
1070
     1
1070
    73
1070
     0
1070
   271
1070
     1
1070
   179
1070
     1
1070
   270
1070
     2
1070
   277
1070
     2
1070
   276
1070
     0
1002
}
  0
DIMENSION
  5
67
100
AcDbEntity
  8
0
100
AcDbDimension
  2
*D2
 10
4.8
 20
2.5
 30
0.0
 11
4.654444
 21
1.3
 31
0.0
 70
    32
  3
STANDARD
100
AcDbAlignedDimension
 13
4.1
 23
0.0
 33
0.0
 14
4.1
 24
2.5
 34
0.0
 50
90.0
100
AcDbRotatedDimension
1001
ACAD
1000
DSTYLE
1002
{
1070
   140
1040
0.111111
1070
    77
1070
     1
1070
    73
1070
     0
1070
   271
1070
     2
1070
   179
1070
     2
1070
   270
1070
     2
1070
   277
1070
     2
1070
   276
1070
     0
1002
}
  0
DIMENSION
  5
76
100
AcDbEntity
  8
0
100
AcDbDimension
  2
*D3
 10
3.09
 20
1.5
 30
0.0
 11
2.7
 21
1.645556
 31
0.0
 70
    32
  3
STANDARD
100
AcDbAlignedDimension
 13
2.9
 23
2.5
 33
0.0
 14
3.09
 24
2.5
 34
0.0
100
AcDbRotatedDimension
1001
ACAD
1000
DSTYLE
1002
{
1070
   140
1040
0.111111
1070
    77
1070
     1
1070
    73
1070
     0
1070
   271
1070
     1
1070
   179
1070
     1
1070
   270
1070
     2
1070
   277
1070
     2
1070
   276
1070
     0
1002
}
  0
DIMENSION
  5
84
100
AcDbEntity
  8
0
100
AcDbDimension
  2
*D4
 10
6.0
 20
2.9
 30
0.0
 11
4.9
 21
3.045556
 31
0.0
 70
    32
  3
STANDARD
100
AcDbAlignedDimension
 13
3.85
 23
2.5
 33
0.0
 14
6.0
 24
2.5
 34
0.0
100
AcDbRotatedDimension
1001
ACAD
1000
DSTYLE
1002
{
1070
   140
1040
0.111111
1070
    77
1070
     1
1070
    73
1070
     0
1070
   271
1070
     2
1070
   179
1070
     2
1070
   270
1070
     2
1070
   277
1070
     2
1070
   276
1070
     0
1002
}
  0
DIMENSION
  5
92
100
AcDbEntity
  8
0
100
AcDbDimension
  2
*D5
 10
2.15
 20
2.9
 30
0.0
 11
1.075
 21
3.045556
 31
0.0
 70
    32
  3
STANDARD
100
AcDbAlignedDimension
 13
0.0
 23
2.5
 33
0.0
 14
2.15
 24
2.5
 34
0.0
100
AcDbRotatedDimension
1001
ACAD
1000
DSTYLE
1002
{
1070
   140
1040
0.111111
1070
    77
1070
     1
1070
    73
1070
     0
1070
   271
1070
     2
1070
   179
1070
     2
1070
   270
1070
     2
1070
   277
1070
     2
1070
   276
1070
     0
1002
}
  0
DIMENSION
  5
A0
100
AcDbEntity
  8
0
100
AcDbDimension
  2
*D6
 10
3.85
 20
2.75
 30
0.0
 11
3.0
 21
2.895556
 31
0.0
 70
    32
  3
STANDARD
100
AcDbAlignedDimension
 13
2.15
 23
2.5
 33
0.0
 14
3.85
 24
2.5
 34
0.0
100
AcDbRotatedDimension
1001
ACAD
1000
DSTYLE
1002
{
1070
   140
1040
0.111111
1070
    77
1070
     1
1070
    73
1070
     0
1070
   271
1070
     2
1070
   179
1070
     2
1070
   270
1070
     2
1070
   277
1070
     2
1070
   276
1070
     0
1002
}
  0
DIMENSION
  5
AE
100
AcDbEntity
  8
0
100
AcDbDimension
  2
*D7
 10
1.5
 20
1.8
 30
0.0
 11
0.75
 21
1.945556
 31
0.0
 70
    32
  3
STANDARD
100
AcDbAlignedDimension
 13
0.0
 23
1.5
 33
0.0
 14
1.5
 24
1.5
 34
0.0
100
AcDbRotatedDimension
1001
ACAD
1000
DSTYLE
1002
{
1070
   140
1040
0.111111
1070
    77
1070
     1
1070
    73
1070
     0
1070
   271
1070
     2
1070
   179
1070
     2
1070
   270
1070
     2
1070
   277
1070
     2
1070
   276
1070
     0
1002
}
  0
DIMENSION
  5
BC
100
AcDbEntity
  8
0
100
AcDbDimension
  2
*D8
 10
2.9
 20
1.0
 30
0.0
 11
2.2
 21
1.145556
 31
0.0
 70
    32
  3
STANDARD
100
AcDbAlignedDimension
 13
1.5
 23
0.4
 33
0.0
 14
2.9
 24
0.4
 34
0.0
100
AcDbRotatedDimension
1001
ACAD
1000
DSTYLE
1002
{
1070
   140
1040
0.111111
1070
    77
1070
     1
1070
    73
1070
     0
1070
   271
1070
     2
1070
   179
1070
     2
1070
   270
1070
     2
1070
   277
1070
     2
1070
   276
1070
     0
1002
}
  0
DIMENSION
  5
CA
100
AcDbEntity
  8
0
100
AcDbDimension
  2
*D9
 10
1.3
 20
1.5
 30
0.0
 11
0.954444
 21
0.9
 31
0.0
 70
    32
  3
STANDARD
100
AcDbAlignedDimension
 13
1.4
 23
0.3
 33
0.0
 14
0.4
 24
1.5
 34
0.0
 50
90.0
100
AcDbRotatedDimension
1001
ACAD
1000
DSTYLE
1002
{
1070
   140
1040
0.111111
1070
    77
1070
     1
1070
    73
1070
     0
1070
   271
1070
     2
1070
   179
1070
     2
1070
   270
1070
     2
1070
   277
1070
     2
1070
   276
1070
     0
1002
}
  0
DIMENSION
  5
D8
100
AcDbEntity
  8
0
100
AcDbDimension
  2
*D10
 10
1.1
 20
0.3
 30
0.0
 11
0.804444
 21
0.15
 31
0.0
 70
    32
  3
STANDARD
100
AcDbAlignedDimension
 13
2.8
 23
0.0
 33
0.0
 14
1.5
 24
0.3
 34
0.0
 50
90.0
100
AcDbRotatedDimension
1001
ACAD
1000
DSTYLE
1002
{
1070
   140
1040
0.111111
1070
    77
1070
     1
1070
    73
1070
     0
1070
   271
1070
     2
1070
   179
1070
     2
1070
   270
1070
     2
1070
   277
1070
     2
1070
   276
1070
     0
1002
}
  0
DIMENSION
  5
E6
100
AcDbEntity
  8
0
100
AcDbDimension
  2
*D11
 10
6.0
 20
0.4
 30
0.0
 11
4.6
 21
0.545556
 31
0.0
 70
    32
  3
STANDARD
100
AcDbAlignedDimension
 13
3.1
 23
0.0
 33
0.0
 14
6.0
 24
0.0
 34
0.0
100
AcDbRotatedDimension
1001
ACAD
1000
DSTYLE
1002
{
1070
   140
1040
0.111111
1070
    77
1070
     1
1070
    73
1070
     0
1070
   271
1070
     2
1070
   179
1070
     2
1070
   270
1070
     2
1070
   277
1070
     2
1070
   276
1070
     0
1002
}
  0
DIMENSION
  5
F1
100
AcDbEntity
  8
0
100
AcDbDimension
  2
*D12
 10
3.817258
 20
2.630969
 30
0.0
 11
4.2
 21
2.1
 31
0.0
 70
   163
  3
STANDARD
100
AcDbDiametricDimension
 15
3.882742
 25
2.369031
 35
0.0
 40
0.0
1001
ACAD
1000
DSTYLE
1002
{
1070
   140
1040
0.111111
1070
    73
1070
     0
1070
    74
1070
     1
1070
   271
1070
     2
1070
   179
1070
     2
1070
   172
1070
     0
1070
   288
1070
     1
1070
   270
1070
     2
1070
   277
1070
     2
1070
   276
1070
     0
1002
}
  0
DIMENSION
  5
FC
100
AcDbEntity
  8
0
100
AcDbDimension
  2
*D13
 10
2.197402
 20
2.626404
 30
0.0
 11
1.75
 21
2.1
 31
0.0
 70
   163
  3
STANDARD
100
AcDbDiametricDimension
 15
2.102598
 25
2.373596
 35
0.0
 40
0.0
1001
ACAD
1000
DSTYLE
1002
{
1070
   140
1040
0.111111
1070
    73
1070
     0
1070
    74
1070
     1
1070
   271
1070
     2
1070
   179
1070
     2
1070
   172
1070
     0
1070
   288
1070
     1
1070
   270
1070
     2
1070
   277
1070
     2
1070
   276
1070
     0
1002
}
  0
MTEXT
  5
FD
100
AcDbEntity
  8
DIMENSIONS
100
AcDbMText
 10
2.944444
 20
4.95
 30
0.0
 40
0.121339
 41
2.111111
 71
     5
 72
     5
  1
\C7;\fArial|b0|i0|;\H0.12133881635964;Two-position 6" square \Ptable for \U+201C4x6\U+201D band saw.  \PDimensions given fit \PHarbor Freight green \Pmodel.  Yours may vary.\PMake from \U+00BC\U+201D plate\P
  0
DIMENSION
  5
10B
100
AcDbEntity
  8
0
100
AcDbDimension
  2
*D14
 10
2.8
 20
0.35
 30
0.0
 11
2.17
 21
0.485556
 31
0.0
 70
    32
  3
STANDARD
100
AcDbAlignedDimension
 13
1.5
 23
0.25
 33
0.0
 14
2.8
 24
0.0
 34
0.0
100
AcDbRotatedDimension
1001
ACAD
1000
DSTYLE
1002
{
1070
   140
1040
0.111111
1070
    77
1070
     1
1070
    73
1070
     0
1070
   271
1070
     2
1070
   179
1070
     2
1070
   270
1070
     2
1070
   277
1070
     2
1070
   276
1070
     0
1002
}
  0
ENDSEC
  0
SECTION
  2
OBJECTS
  0
DICTIONARY
  5
C
100
AcDbDictionary
  3
ACAD_GROUP
350
D
  3
ACAD_MLINESTYLE
350
1B
  0
DICTIONARY
  5
D
102
{ACAD_REACTORS
330
C
102
}
100
AcDbDictionary
  3
VISIOGROUP_0
350
31
  0
DICTIONARY
  5
1B
102
{ACAD_REACTORS
330
C
102
}
100
AcDbDictionary
  3
STANDARD
350
1C
  0
MLINESTYLE
  5
1C
102
{ACAD_REACTORS
330
1B
102
}
100
AcDbMlineStyle
  2
STANDARD
 70
     0
  3

 62
   256
 51
90.0
 52
90.0
 71
     2
 49
0.5
 62
   256
  6
BYLAYER
 49
-0.5
 62
   256
  6
BYLAYER
  0
GROUP
  5
31
102
{ACAD_REACTORS
330
D
102
}
100
AcDbGroup
300
Group created by Visio.
 70
     0
 71
     1
340
32
340
33
340
34
340
35
340
36
340
37
340
38
340
39
340
3A
  0
ENDSEC
  0
EOF
